<?xml version="1.0" standalone="no"?>
<!DOCTYPE svg PUBLIC "-//W3C//DTD SVG 1.1//EN" "http://www.w3.org/Graphics/SVG/1.1/DTD/svg11.dtd" >
<svg xmlns="http://www.w3.org/2000/svg">
<metadata></metadata>
<defs>
<font id="breaksemibold" horiz-adv-x="534" >
<font-face units-per-em="1000" ascent="750" descent="-250" />
<missing-glyph horiz-adv-x="150" />
<glyph horiz-adv-x="0" />
<glyph horiz-adv-x="0" />
<glyph unicode=" "  horiz-adv-x="150" />
<glyph unicode="&#x09;" horiz-adv-x="150" />
<glyph unicode="&#xa0;" horiz-adv-x="150" />
<glyph unicode="!" horiz-adv-x="204" d="M35 120q-9 0 -15 6t-6 15v518q0 9 6 15t15 6q8 0 14 -6t6 -15v-518q0 -9 -6 -15t-14 -6zM35 69q14 0 24 -10t10 -24q0 -15 -10 -25t-24 -10q-15 0 -25 10t-10 25q0 14 10 24t25 10z" />
<glyph unicode="&#x22;" horiz-adv-x="833" />
<glyph unicode="#" horiz-adv-x="800" d="M658 243q9 0 15.5 -6.5t6.5 -15.5q0 -8 -6.5 -14.5t-15.5 -6.5h-197l-25 -182q-1 -8 -7 -13t-14 -5h-3q-9 2 -14.5 9t-3.5 15l24 176h-194l-25 -182q-1 -8 -7 -13t-14 -5h-3q-9 2 -14.5 9t-3.5 15l24 176h-160q-8 0 -14.5 6.5t-6.5 14.5q0 9 6.5 15.5t14.5 6.5h165 l27 194h-192q-8 0 -14.5 6.5t-6.5 14.5q0 9 6.5 15.5t14.5 6.5h198l25 181q1 9 8 14.5t16 4.5q9 -2 14.5 -9t3.5 -15l-24 -176h194l25 181q1 9 8 14.5t16 4.5q9 -2 14.5 -9t3.5 -15l-24 -176h159q9 0 15.5 -6.5t6.5 -15.5q0 -8 -6.5 -14.5t-15.5 -6.5h-165l-26 -194h191z M424 243l26 194h-194l-26 -194h194z" />
<glyph unicode="$" horiz-adv-x="490" d="M361 240q0 -35 -12.5 -65.5t-34 -54.5t-50.5 -39.5t-62 -19.5v-39q0 -9 -6.5 -15.5t-15.5 -6.5t-15.5 6.5t-6.5 15.5v39q-33 4 -62 19.5t-50.5 39.5t-33.5 54.5t-12 65.5q0 55 31 102q5 8 13.5 9t16.5 -4t9.5 -13.5t-3.5 -16.5q-23 -35 -23 -77q0 -26 8.5 -48.5t24 -40.5 t36.5 -29.5t45 -15.5v273q-42 8 -70 41.5t-28 78.5t28 78t70 41v40q0 9 6.5 15.5t15.5 6.5t15.5 -6.5t6.5 -15.5v-40q21 -4 39.5 -14.5t32 -26.5t21.5 -36t8 -42q0 -10 -6.5 -16t-15.5 -6t-15.5 6t-6.5 16q0 32 -22.5 54.5t-54.5 22.5q-16 0 -30.5 -6t-25 -16.5t-16.5 -24.5 t-6 -30q0 -32 23 -55t55 -23q37 0 69.5 -14.5t57 -39t38.5 -57.5t14 -70zM202 106q24 4 45 15.5t36.5 29.5t24.5 40.5t9 48.5q0 25 -9 48t-24.5 41t-36.5 30t-45 16v-269z" />
<glyph unicode="%" horiz-adv-x="833" d="M504 677q8 -4 11 -12t-2 -16l-340 -638q-6 -11 -19 -11q-4 0 -10 2q-8 5 -11 13t2 16l341 638q4 8 12 10.5t16 -2.5zM241 449q0 -25 -9.5 -46.5t-26 -38t-38 -26t-46.5 -9.5t-47 9.5t-38.5 26t-26 38t-9.5 46.5t9.5 47t26 38.5t38.5 26t47 9.5t46.5 -9.5t38 -26t26 -38.5 t9.5 -47zM121 371q32 0 55 23t23 55t-23 55t-55 23t-55 -23t-23 -55t23 -55t55 -23zM511 340q25 0 46.5 -9.5t38 -26t26 -38.5t9.5 -47t-9.5 -46.5t-26 -38t-38 -26t-46.5 -9.5t-47 9.5t-38.5 26t-26 38t-9.5 46.5t9.5 47t26 38.5t38.5 26t47 9.5zM511 142q32 0 55 22.5 t23 54.5t-23 55t-55 23t-55 -23t-23 -55t23 -54.5t55 -22.5z" />
<glyph unicode="&#x26;" horiz-adv-x="615" d="M488 438q7 -31 -10 -57.5t-48 -32.5l-20 -5q35 -55 35 -120q0 -46 -17.5 -86.5t-47.5 -71t-70.5 -48t-86.5 -17.5t-86.5 17.5t-71 48t-48 71t-17.5 86.5q0 56 26 104.5t72 79.5l89 60q-32 11 -53 39t-21 64q0 23 8.5 43t23.5 35t35 23.5t43 8.5q22 0 42 -8.5t35 -23.5 t23.5 -35t8.5 -43q0 -29 -13 -52.5t-36 -38.5l-161 -107q-38 -26 -58.5 -65t-20.5 -84q0 -38 14 -70.5t38.5 -57t57 -38.5t70.5 -14q37 0 70 14t57.5 38.5t38.5 57t14 70.5q0 62 -39 110l-25 -5q-13 -3 -21 -14q-7 -11 -5 -25q2 -9 -2.5 -16.5t-13.5 -9.5h-4q-8 0 -13.5 4.5 t-7.5 12.5q-7 30 10 57t48 33l91 19q14 3 21 14.5t4 25.5q-2 8 3 15.5t14 9.5q8 2 15.5 -3t9.5 -13zM156 570q0 -27 19.5 -46.5t47.5 -19.5q27 0 46.5 19.5t19.5 46.5q0 28 -19.5 47.5t-46.5 19.5q-28 0 -47.5 -19.5t-19.5 -47.5z" />
<glyph unicode="(" horiz-adv-x="373" d="M232 641q-62 -62 -103.5 -136t-62.5 -153.5t-21 -162t21 -162t62.5 -153.5t103.5 -136q7 -7 7 -16t-7 -16q-6 -7 -16 -7t-16 7q-67 66 -111.5 145t-66.5 164.5t-22 173.5t22 173.5t66.5 164.5t111.5 146q7 7 16 7t16 -7t7 -16t-7 -16z" />
<glyph unicode=")" horiz-adv-x="373" d="M7 641q-7 7 -7 16t7 16t16 7t16 -7q67 -67 111.5 -146t66.5 -164.5t22 -173.5t-22 -173.5t-66.5 -164.5t-111.5 -145q-7 -7 -16 -7q-10 0 -16 7q-7 7 -7 16t7 16q62 62 103.5 136t62.5 153.5t21 162t-21 162t-62.5 153.5t-103.5 136z" />
<glyph unicode="*" horiz-adv-x="356" d="M217 584q8 0 13.5 -5.5t5.5 -13.5t-5.5 -13.5t-13.5 -5.5h-64l44 -67q5 -7 3 -14t-9 -12q-5 -3 -10 -3q-10 0 -16 8l-47 73l-47 -73q-6 -8 -16 -8q-6 0 -10 3q-7 5 -8.5 12t2.5 14l44 67h-64q-8 0 -13.5 5.5t-5.5 13.5t5.5 13.5t13.5 5.5h64l-44 67q-4 7 -2.5 14t8.5 12 q6 5 13.5 3t12.5 -9l47 -72l47 72q5 7 12.5 9t13.5 -3q7 -5 9 -12t-3 -14l-44 -67h64v0z" />
<glyph unicode="+" horiz-adv-x="587" d="M447 244q9 0 15.5 -6.5t6.5 -15.5t-6.5 -15.5t-15.5 -6.5h-191v-178q0 -9 -6.5 -15.5t-15.5 -6.5t-15.5 6.5t-6.5 15.5v178h-191q-9 0 -15.5 6.5t-6.5 15.5t6.5 15.5t15.5 6.5h191v178q0 9 6.5 15.5t15.5 6.5t15.5 -6.5t6.5 -15.5v-178h191v0z" />
<glyph unicode="," horiz-adv-x="217" d="M45 89q18 0 31 -13t13 -32q0 -11 -4 -19l-31 -65q-3 -8 -12 -8q-3 0 -5 2q-12 5 -7 18l13 27q-18 1 -30.5 14t-12.5 31q0 19 13 32t32 13z" />
<glyph unicode="-" horiz-adv-x="321" d="M178 253q10 0 16.5 -7t6.5 -17q0 -9 -6.5 -16t-16.5 -7h-155q-10 0 -16.5 7t-6.5 16q0 10 6.5 17t16.5 7h155v0z" />
<glyph unicode="." horiz-adv-x="217" d="M45 88q18 0 31 -13t13 -32q0 -18 -13 -31.5t-31 -13.5q-19 0 -32 13.5t-13 31.5q0 19 13 32t32 13z" />
<glyph unicode="/" horiz-adv-x="435" d="M293 678q8 -3 11 -11t0 -16l-264 -638q-5 -13 -19 -13q-5 0 -8 2q-8 3 -11.5 11t0.5 16l263 638q4 8 12 11.5t16 -0.5z" />
<glyph unicode="0" horiz-adv-x="553" d="M425 469v-254q1 -44 -15.5 -83t-45 -68t-67 -46.5t-82.5 -17.5h-2q-44 0 -82.5 16.5t-67.5 45t-46 66.5t-17 82v255q0 10 6.5 16.5t16.5 6.5t16.5 -6.5t6.5 -16.5v-254q0 -34 13.5 -64t36 -52.5t53 -35.5t64.5 -13h2q34 0 64 13.5t52.5 36.5t35 53.5t12.5 65.5v254 q0 69 -50 117q-24 23 -54 36t-64 12q-58 -2 -104 -38q-14 -11 -27 -29q-8 -10 -14 -20q-5 -8 -14 -11t-17 2t-11 14t2 17q4 7 8 13.5t9 12.5q8 11 16.5 20t18.5 17q28 23 62 35t70 13q43 1 82 -15t69 -46q31 -29 47.5 -67.5t16.5 -81.5v-1z" />
<glyph unicode="1" horiz-adv-x="313" d="M157 680q9 0 16 -7t7 -16v-634q0 -10 -7 -16.5t-16 -6.5q-10 0 -17 6.5t-7 16.5v634q0 9 7 16t17 7zM51 584q7 7 16 7t17 -7q7 -7 7 -16.5t-7 -16.5l-44 -44q-7 -7 -17 -7t-16 7q-7 7 -7 16.5t7 16.5z" />
<glyph unicode="2" horiz-adv-x="520" d="M106 366q-9 0 -16 6q-26 26 -40.5 59t-14.5 70t14 69.5t38 57t56.5 38.5t69.5 14t69.5 -14t57 -38.5t38.5 -57t14 -69.5q0 -32 -11.5 -62t-32.5 -55l-243 -297q-8 -9 -18 -9q-8 0 -15 5q-8 6 -8.5 15.5t5.5 17.5l243 297v1q33 38 33 87q0 27 -10.5 51t-28.5 42t-42 28.5 t-51 10.5t-51 -10.5t-41.5 -28.5t-28 -42t-10.5 -51t10 -51.5t30 -43.5q8 -7 8 -16t-7 -17q-7 -7 -17 -7zM346 47q10 0 17 -7t7 -17t-7 -16.5t-17 -6.5h-323q-10 0 -16.5 6.5t-6.5 16.5t6.5 17t16.5 7h323z" />
<glyph unicode="3" horiz-adv-x="519" d="M196 391q40 0 76 -15.5t62 -41.5t41.5 -62t15.5 -76q0 -41 -15.5 -76.5t-41.5 -62t-62 -42t-76 -15.5q-41 0 -76.5 15.5t-62 42t-42 62t-15.5 76.5q0 61 35 111q5 8 14.5 9.5t17.5 -3.5t9.5 -14.5t-3.5 -17.5q-13 -19 -20 -40.5t-7 -44.5q0 -31 12 -58.5t32 -47.5 t47.5 -32t58.5 -12t58 12t47 32t32 47.5t12 58.5t-12 58t-32 47t-47 32t-58 12q-10 0 -17 6.5t-7 16.5t7 16.5t17 6.5zM95 407q-8 -6 -17.5 -5t-14.5 9q-35 44 -35 102q0 34 13 64.5t36 53.5t53.5 36t65.5 13q34 0 64.5 -13t53.5 -36t36 -53.5t13 -64.5q0 -64 -41 -110 q-3 -5 -7.5 -6.5t-9.5 -1.5q-8 0 -16 5q-7 7 -7.5 16.5t5.5 16.5q30 35 30 80q0 25 -9.5 46.5t-26 38t-38.5 26t-47 9.5t-47 -9.5t-38.5 -26t-26 -38t-9.5 -46.5q0 -43 25 -74q5 -8 4 -17.5t-9 -14.5z" />
<glyph unicode="4" horiz-adv-x="502" d="M346 177q10 0 16.5 -7t6.5 -17t-6.5 -16.5t-16.5 -6.5h-34v-107q0 -10 -6.5 -16.5t-16.5 -6.5t-16.5 6.5t-6.5 16.5v107h-243q-10 0 -16.5 6.5t-6.5 16.5t6.5 17t16.5 7h243v387l-180 -342q-7 -13 -21 -13q-5 0 -11 3q-8 5 -11 14t2 18l222 424q6 10 20 12h5q8 -2 14 -8 t6 -15v-480h34v0z" />
<glyph unicode="5" horiz-adv-x="555" d="M214 428q44 0 83 -17t68 -46t46 -68t17 -83t-17 -83t-46 -68t-68 -46t-83 -17t-83 17t-68 46t-46 68t-17 83q0 10 6.5 16.5t16.5 6.5t16.5 -6.5t6.5 -16.5q0 -35 13.5 -65.5t36 -53t53 -36t65.5 -13.5q34 0 65 13.5t53.5 36t36 53t13.5 65.5q0 34 -13.5 65t-36 53.5 t-53.5 36t-65 13.5q-35 0 -67.5 -14.5t-56.5 -40.5q-6 -8 -15.5 -8t-17.5 6q-7 7 -7.5 16.5t6.5 16.5q30 34 71.5 52t86.5 18zM88 422q-10 2 -15.5 10t-3.5 17l38 211q2 7 6 11l2.5 2.5t2.5 1.5q5 5 13 5h194q9 0 16 -6.5t7 -16.5t-7 -17t-16 -7h-175l-35 -192 q-2 -8 -8.5 -13.5t-14.5 -5.5h-4z" />
<glyph unicode="6" horiz-adv-x="555" d="M170 443q-9 0 -14 5q-8 6 -9 15t5 17l150 191q6 8 15 9t17 -5t9 -15.5t-5 -17.5l-150 -191q-6 -8 -18 -8zM214 428q44 0 83 -17t68 -46t46 -68t17 -83t-17 -83t-46 -68t-68 -46t-83 -17t-83 17t-68 46t-46 68t-17 83t17 83t46 68t68 46t83 17zM214 46q34 0 65 13.5 t53.5 36t36 53t13.5 65.5q0 34 -13.5 65t-36 53.5t-53.5 36t-65 13.5q-35 0 -65.5 -13.5t-53 -36t-36 -53.5t-13.5 -65q0 -35 13.5 -65.5t36 -53t53 -36t65.5 -13.5z" />
<glyph unicode="7" horiz-adv-x="474" d="M322 680q10 0 16.5 -6.5t6.5 -16.5t-6.5 -17t-16.5 -7h-299q-10 0 -16.5 7t-6.5 17t6.5 16.5t16.5 6.5h299zM304 598q10 -3 14.5 -11.5t1.5 -17.5l-166 -552q-5 -17 -22 -17q-5 0 -7 1q-9 3 -13.5 11.5t-1.5 17.5l165 553q3 9 11.5 13.5t17.5 1.5z" />
<glyph unicode="8" horiz-adv-x="548" d="M299 403q55 -26 89 -77t34 -115q0 -44 -16.5 -82t-45.5 -67t-67.5 -45.5t-81.5 -16.5q-44 0 -82 16.5t-67 45.5t-45.5 67t-16.5 82q0 46 18.5 87t53.5 72q8 6 17.5 5.5t15.5 -8.5q6 -7 6 -16.5t-8 -16.5q-27 -23 -41.5 -55.5t-14.5 -67.5q0 -34 13 -64t35 -52t52 -35 t64 -13t63.5 13t52 35t35.5 52t13 64q0 33 -12 62t-33.5 51.5t-50.5 35.5t-62 15h-6q-32 0 -59.5 12t-48.5 32.5t-33 48t-12 59.5q0 31 12 59t33 49t48.5 33t59.5 12q31 0 59 -12t48.5 -33t32.5 -49t12 -59q0 -38 -17.5 -71t-46.5 -53zM105 527q0 -22 8.5 -41t22.5 -33.5 t33.5 -23t41.5 -8.5t41 8.5t33.5 23t23 33.5t8.5 41t-8.5 41.5t-23 33.5t-33.5 22.5t-41 8.5q-45 0 -75.5 -30.5t-30.5 -75.5z" />
<glyph unicode="9" horiz-adv-x="555" d="M240 228q6 8 15 9t17 -5t9 -15t-5 -17l-150 -191q-6 -9 -18 -9q-7 0 -14 5q-8 6 -9 15.5t5 17.5zM214 680q44 0 83 -17t68 -46t46 -68t17 -83t-17 -83t-46 -68t-68 -46t-83 -17t-83 17t-68 46t-46 68t-17 83t17 83t46 68t68 46t83 17zM214 298q34 0 65 13.5t53.5 36 t36 53t13.5 65.5q0 34 -13.5 64.5t-36 53.5t-53.5 36t-65 13q-35 0 -65.5 -13t-53 -36t-36 -53.5t-13.5 -64.5q0 -35 13.5 -65.5t36 -53t53 -36t65.5 -13.5z" />
<glyph unicode=":" horiz-adv-x="217" d="M45 354q-19 0 -32 13.5t-13 31.5q0 19 13 32t32 13q18 0 31 -13t13 -32q0 -18 -13 -31.5t-31 -13.5zM45 88q18 0 31 -13t13 -32q0 -18 -13 -31.5t-31 -13.5q-19 0 -32 13.5t-13 31.5q0 19 13 32t32 13z" />
<glyph unicode=";" horiz-adv-x="217" d="M45 355q-19 0 -32 13t-13 31q0 19 13 32t32 13q18 0 31 -13t13 -32q0 -18 -13 -31t-31 -13zM45 89q18 0 31 -13t13 -32q0 -11 -4 -19l-31 -65q-3 -8 -12 -8q-3 0 -5 2q-12 5 -7 18l13 27q-18 1 -30.5 14t-12.5 31q0 19 13 32t32 13z" />
<glyph unicode="&#x3c;" horiz-adv-x="372" d="M237 38q7 -7 7 -16t-7 -16q-6 -6 -15 -6q-10 0 -16 6l-200 200q-6 7 -6 16q0 8 6 16l200 199q7 7 16 7t15 -7q7 -6 7 -15t-7 -16l-184 -184z" />
<glyph unicode="=" horiz-adv-x="555" d="M413 184q9 0 15.5 -6.5t6.5 -15.5t-6.5 -15.5t-15.5 -6.5h-391q-9 0 -15.5 6.5t-6.5 15.5t6.5 15.5t15.5 6.5h391zM22 263q-9 0 -15.5 6.5t-6.5 15.5q0 10 6.5 16.5t15.5 6.5h391q9 0 15.5 -6.5t6.5 -16.5q0 -9 -6.5 -15.5t-15.5 -6.5h-391z" />
<glyph unicode="&#x3e;" horiz-adv-x="372" d="M6 406q-6 7 -6 16t6 15q7 7 16 7t16 -7l199 -199q7 -7 7 -16t-7 -16l-199 -200q-7 -6 -16 -6t-16 6q-6 7 -6 16t6 16l185 184z" />
<glyph unicode="?" horiz-adv-x="493" d="M183 72q15 0 25.5 -10.5t10.5 -25.5t-10.5 -25.5t-25.5 -10.5t-25.5 10.5t-10.5 25.5t10.5 25.5t25.5 10.5zM183 680q37 0 70.5 -14.5t58 -39t39 -58t14.5 -70.5t-13.5 -70.5t-39.5 -59.5q-44 -44 -108 -52v-176q0 -9 -6 -15.5t-15 -6.5t-15.5 6.5t-6.5 15.5v196 q0 9 6.5 15.5t15.5 6.5q28 0 53 10.5t45 30.5t30.5 45t10.5 54t-11 54.5t-29.5 44t-44 29.5t-54.5 11t-54.5 -11t-44.5 -29.5t-30 -44t-11 -54.5q0 -9 -6.5 -15.5t-15.5 -6.5q-8 0 -14.5 6.5t-6.5 15.5q0 37 14.5 70.5t39 58t58 39t71.5 14.5z" />
<glyph unicode="@" horiz-adv-x="800" d="M680 340q0 -96 -50 -178h-1q-16 -23 -39.5 -35.5t-49.5 -12.5q-16 0 -31.5 4.5t-29.5 14.5q-19 13 -30 31t-15 38q-20 -14 -44 -21.5t-50 -7.5q-35 0 -65 13t-53 36t-36 53t-13 65q0 34 13 64.5t36 53t53 35.5t65 13q34 0 64.5 -13t53 -35.5t35.5 -53t13 -64.5 q0 -47 -23 -85l-1 -1q-11 -22 -5 -46.5t26 -38.5q23 -16 49 -11t42 28q43 71 43 154q0 61 -23.5 115.5t-63.5 94.5t-94.5 63.5t-115.5 23.5q-62 0 -116 -23.5t-94 -63.5t-63.5 -94.5t-23.5 -115.5q0 -62 23.5 -116t63.5 -94t94 -63.5t116 -23.5q9 0 15 -6.5t6 -15.5 q0 -8 -6 -14.5t-15 -6.5q-71 0 -132.5 26.5t-108 73t-73 108t-26.5 132.5q0 70 26.5 132t73 108t108 73t132.5 27q70 0 132 -27t108 -73t73 -108t27 -132zM340 216q25 0 47.5 10t39.5 26.5t26.5 39t9.5 48.5q0 25 -9.5 47.5t-26.5 39.5t-39.5 26.5t-47.5 9.5 q-26 0 -48.5 -9.5t-39 -26.5t-26.5 -39.5t-10 -47.5q0 -26 10 -48.5t26.5 -39t39 -26.5t48.5 -10z" />
<glyph unicode="A" horiz-adv-x="675" d="M610 30q4 -8 1 -16t-11 -12q-6 -2 -9 -2q-14 0 -20 13l-265 594l-142 -317h159q9 0 15.5 -6.5t6.5 -15.5t-6.5 -15t-15.5 -6h-178l-104 -234q-7 -13 -20 -13q-4 0 -8 2q-8 4 -11.5 12t0.5 16l110 246l174 391q6 13 20 13q6 0 12 -3.5t8 -9.5l284 -637v0z" />
<glyph unicode="B" horiz-adv-x="564" d="M246 458q44 -3 83 -22.5t67.5 -50t45 -71t16.5 -85.5q0 -47 -18 -89t-49 -73t-72.5 -49t-89.5 -18h-208q-8 0 -14.5 6.5t-6.5 14.5v501q0 9 6.5 15t14.5 6q9 0 15.5 -6t6.5 -15v-160q23 32 55.5 55t71.5 34h1q27 11 43 35.5t16 53.5q0 41 -28 69t-69 28h-112 q-8 0 -14.5 6.5t-6.5 15.5q0 8 6.5 14.5t14.5 6.5h115h1q28 -1 53 -12t43.5 -30t29 -44.5t10.5 -53.5q0 -23 -7 -44t-20 -38zM229 43q39 0 73 14.5t59.5 40t40 59t14.5 72.5t-14.5 73t-40 59.5t-59.5 40t-73 14.5t-72.5 -14.5t-59 -40t-40 -59.5t-14.5 -73v-186h186z" />
<glyph unicode="C" horiz-adv-x="663" d="M552 606q7 -5 7.5 -14t-4.5 -16q-6 -8 -17 -8q-8 0 -13 5q-81 64 -185 64q-45 0 -87 -12.5t-79 -37.5q-8 -5 -16.5 -3.5t-13.5 8.5q-5 8 -3.5 16.5t9.5 13.5q42 29 90.5 43.5t99.5 14.5q59 0 112.5 -19t99.5 -55zM340 43q9 0 15 -6.5t6 -15.5q0 -8 -6 -14.5t-15 -6.5 q-71 0 -132.5 26.5t-108 73t-73 108t-26.5 132.5q0 69 28 136q4 8 12 11.5t16 -0.5t11.5 -12t0.5 -16q-25 -56 -25 -119q0 -62 23.5 -116t63.5 -94t94 -63.5t116 -23.5z" />
<glyph unicode="D" horiz-adv-x="594" d="M149 680q70 0 132.5 -27t108.5 -73t73 -108.5t27 -132.5q0 -60 -20.5 -115.5t-56.5 -99.5t-85.5 -75.5t-108.5 -43.5q-12 -2 -24 -3.5t-24 -1.5h-150q-8 0 -14.5 6.5t-6.5 14.5q0 9 6.5 15.5t14.5 6.5h150q22 0 39 4q51 11 94.5 38t75 66t49.5 87t18 101 q0 61 -23.5 115.5t-64 95t-95 64t-115.5 23.5q-45 0 -75.5 -30.5t-30.5 -75.5v-376q0 -9 -6.5 -15t-15.5 -6q-8 0 -14.5 6t-6.5 15v376q0 31 11.5 58t32 47t47.5 32t58 12z" />
<glyph unicode="E" horiz-adv-x="474" d="M345 43q8 0 14.5 -6.5t6.5 -15.5q0 -8 -6.5 -14.5t-14.5 -6.5h-222q-26 0 -48 10t-39 27t-26.5 39.5t-9.5 48.5v405q0 9 6.5 15.5t14.5 6.5q9 0 15.5 -6.5t6.5 -15.5v-169h140q9 0 15 -6t6 -15t-6 -15t-15 -6h-140v-194q0 -35 23.5 -58.5t58.5 -23.5h220zM21 637 q-8 0 -14.5 6.5t-6.5 15.5q0 8 6.5 14.5t14.5 6.5h287q9 0 15.5 -6.5t6.5 -14.5q0 -9 -6.5 -15.5t-15.5 -6.5h-287z" />
<glyph unicode="F" horiz-adv-x="470" d="M21 242q9 0 15.5 -6.5t6.5 -15.5v-199q0 -8 -6.5 -14.5t-15.5 -6.5q-8 0 -14.5 6.5t-6.5 14.5v199q0 9 6.5 15.5t14.5 6.5zM379 680q9 0 15 -6.5t6 -14.5q0 -9 -6 -15.5t-15 -6.5h-254q-35 0 -58.5 -24t-23.5 -58v-194h174q9 0 15.5 -6t6.5 -15t-6.5 -15t-15.5 -6h-196 q-8 0 -14.5 6t-6.5 15v218v1q1 25 11 46.5t26.5 38t38.5 26.5t47 10h256z" />
<glyph unicode="G" horiz-adv-x="643" d="M539 113v-37q2 -11 -9 -18q-34 -23 -70 -36q-33 -13 -70 -18q-12 -2 -24.5 -3t-25.5 -1q-71 0 -132.5 26.5t-108 73t-73 108t-26.5 132.5q0 70 26.5 132t73 108t108 73t132.5 27q103 0 189 -57q7 -5 8.5 -13.5t-3.5 -16.5t-13 -9.5t-16 3.5q-74 50 -165 50 q-62 0 -116 -23.5t-94 -63.5t-63.5 -94.5t-23.5 -115.5q0 -62 23.5 -116t63.5 -94t94 -63.5t116 -23.5q21 0 44 3q33 5 61 16q14 5 26.5 11.5t25.5 14.5v62q0 9 6 15.5t15 6.5t15 -6.5t6 -15.5v-37zM518 308q9 0 15 -6t6 -15t-6 -15t-15 -6h-79q-9 0 -15.5 6t-6.5 15t6.5 15 t15.5 6h79z" />
<glyph unicode="H" horiz-adv-x="596" d="M470 680q9 0 15 -6.5t6 -14.5v-638q0 -8 -6 -14.5t-15 -6.5t-15.5 6.5t-6.5 14.5v638q0 8 6.5 14.5t15.5 6.5zM333 361q9 0 15 -6t6 -15t-6 -15t-15 -6h-290v-298q0 -8 -6.5 -14.5t-15.5 -6.5q-8 0 -14.5 6.5t-6.5 14.5v638q0 8 6.5 14.5t14.5 6.5q9 0 15.5 -6.5 t6.5 -14.5v-298h290z" />
<glyph unicode="I" horiz-adv-x="487" d="M39 637q-8 0 -14.5 6.5t-6.5 15.5q0 8 6.5 14.5t14.5 6.5h302q9 0 15 -6.5t6 -14.5q0 -9 -6 -15.5t-15 -6.5h-302zM359 43q9 0 15 -6.5t6 -15.5q0 -8 -6 -14.5t-15 -6.5h-338q-8 0 -14.5 6.5t-6.5 14.5q0 9 6.5 15.5t14.5 6.5h148v479q0 9 6 15t15 6t15 -6t6 -15v-479 h148z" />
<glyph unicode="J" horiz-adv-x="471" d="M342 203q9 0 15.5 -6t6.5 -15q0 -38 -14.5 -71t-39 -58t-58 -39t-70.5 -14q-38 0 -71 14t-57.5 39t-39 58t-14.5 71q0 9 6 15t15 6t15.5 -6t6.5 -15q0 -29 11 -54.5t29.5 -44t44 -29.5t54.5 -11q28 0 53.5 11t44.5 29.5t30 44t11 54.5q0 9 6 15t15 6zM342 680 q9 0 15.5 -6.5t6.5 -14.5v-341q0 -9 -6.5 -15t-15.5 -6t-15 6t-6 15v341q0 8 6 14.5t15 6.5z" />
<glyph unicode="K" horiz-adv-x="549" d="M436 674q6 -6 6.5 -14.5t-5.5 -15.5l-394 -423v-200q0 -8 -6.5 -14.5t-15.5 -6.5q-8 0 -14.5 6.5t-6.5 14.5v208v425q0 9 6.5 15.5t14.5 6.5q9 0 15.5 -6.5t6.5 -15.5v-370l363 389q6 7 14.5 7t15.5 -6zM409 36q6 -6 6 -15t-7 -15q-6 -6 -14 -6q-10 0 -16 6l-188 194 q-6 6 -6 15t7 15q6 6 15 6t15 -7z" />
<glyph unicode="L" horiz-adv-x="512" d="M21 246q-8 0 -14.5 6t-6.5 15v392q0 8 6.5 14.5t14.5 6.5q9 0 15.5 -6.5t6.5 -14.5v-392q0 -9 -6.5 -15t-15.5 -6zM384 43q8 0 14.5 -6.5t6.5 -15.5q0 -8 -6.5 -14.5t-14.5 -6.5h-254q-27 0 -50.5 10t-41.5 28t-28 41.5t-10 50.5q0 9 6.5 15.5t14.5 6.5q9 0 15.5 -6.5 t6.5 -15.5q0 -36 25.5 -61.5t61.5 -25.5h254z" />
<glyph unicode="M" horiz-adv-x="697" d="M21 526q9 0 15.5 -6.5t6.5 -14.5v-484q0 -8 -6.5 -14.5t-15.5 -6.5q-8 0 -14.5 6.5t-6.5 14.5v484q0 8 6.5 14.5t14.5 6.5zM573 679q9 0 15.5 -6.5t6.5 -14.5v-637q0 -8 -6.5 -14.5t-15.5 -6.5q-8 0 -14.5 6.5t-6.5 14.5v584l-239 -251q-7 -7 -15 -7h-1q-7 0 -16 7 l-275 290q-6 6 -6 15t7 15q6 6 15 6t15 -7l260 -274l260 273q6 7 16 7z" />
<glyph unicode="N" horiz-adv-x="609" d="M21 680q9 0 15.5 -6.5t6.5 -14.5v-638q0 -8 -6.5 -14.5t-15.5 -6.5q-8 0 -14.5 6.5t-6.5 14.5v638q0 8 6.5 14.5t14.5 6.5zM483 680q9 0 15.5 -6.5t6.5 -14.5v-638q0 -8 -6.5 -14.5t-15.5 -6.5q-10 0 -16 8l-2 2l-343 480q-5 8 -4 16.5t9 13.5q7 5 16 3.5t14 -8.5 l305 -427v571q0 8 6.5 14.5t14.5 6.5z" />
<glyph unicode="O" horiz-adv-x="770" d="M340 680q70 0 132 -27t108 -73t73 -108t27 -132q0 -71 -27 -132.5t-73 -108t-108 -73t-132 -26.5q-71 0 -132.5 26.5t-108 73t-73 108t-26.5 132.5q0 44 11 85.5t31 79.5q5 8 13 10.5t16 -2.5t10.5 -13t-1.5 -16q-19 -33 -28 -69.5t-9 -74.5q0 -62 23.5 -116t63.5 -94 t94 -63.5t116 -23.5q61 0 115.5 23.5t94.5 63.5t63.5 94t23.5 116q0 61 -23.5 115.5t-63.5 94.5t-94.5 63.5t-115.5 23.5q-79 0 -144 -37q-8 -5 -16 -2.5t-13 10.5t-2.5 16.5t10.5 12.5q77 43 165 43z" />
<glyph unicode="P" horiz-adv-x="629" d="M262 680q54 0 102 -20.5t84 -56.5t56.5 -83.5t20.5 -101.5t-20.5 -102t-56.5 -84t-84 -56.5t-102 -20.5q-69 0 -126.5 32.5t-92.5 86.5v-253q0 -8 -6 -14.5t-15 -6.5t-15.5 6.5t-6.5 14.5v390v7v1v103q0 8 6.5 14.5t15.5 6.5t15 -6.5t6 -14.5v-111q1 -44 19 -83t47.5 -68 t69 -45.5t83.5 -16.5q45 0 85 17t70 47t47.5 70t17.5 86q0 45 -17.5 85t-47.5 70t-70 47t-85 17h-239q-9 0 -15 6.5t-6 15.5q0 8 6 14.5t15 6.5h239v0z" />
<glyph unicode="Q" horiz-adv-x="840" d="M755 39q6 -6 6.5 -14.5t-5.5 -15.5t-16 -7q-9 0 -14 5l-195 173q-7 6 -7.5 14.5t5.5 15.5t14.5 7.5t15.5 -5.5l33 -29q19 30 30.5 64t13.5 70q5 61 -14 117t-56.5 99.5t-89.5 70.5t-113 32q-62 5 -117.5 -14t-99 -56.5t-71 -89.5t-32.5 -113q-5 -60 13.5 -115.5 t57.5 -101.5q39 -45 91 -71.5t112 -31.5q38 -2 75 4t72 22q8 4 16 1t12 -11t0.5 -16t-11.5 -12q-65 -31 -141 -31h-13.5t-12.5 1q-69 5 -128 35.5t-104 82.5t-65.5 115.5t-15.5 131.5q5 69 35.5 128t82.5 104t115 65.5t132 15.5q70 -6 129.5 -37.5t102 -81t64.5 -113 t17 -133.5q-3 -43 -17 -84t-37 -76l130 -115v0z" />
<glyph unicode="R" horiz-adv-x="628" d="M524 418q0 -53 -19.5 -99.5t-53.5 -82t-80 -57t-98 -23.5l149 -115q7 -5 8 -13.5t-4 -16.5q-8 -8 -17 -8t-13 4l-353 273v-259q0 -8 -6.5 -14.5t-15.5 -6.5q-8 0 -14.5 6.5t-6.5 14.5v501q0 9 6.5 15t14.5 6q9 0 15.5 -6t6.5 -15v-188l143 -110q15 -12 35 -18.5t41 -6.5 q45 0 85 17t70 47t47 70t17 85t-17 85t-47 70t-70 47t-85 17h-241q-8 0 -14.5 6.5t-6.5 15.5q0 8 6.5 14.5t14.5 6.5h241q54 0 101.5 -20.5t83.5 -56.5t56.5 -83.5t20.5 -101.5z" />
<glyph unicode="S" horiz-adv-x="540" d="M37 338q5 7 13 8.5t16 -3.5q7 -5 9 -13t-3 -16q-30 -44 -30 -97q0 -10 1 -15q1 -8 -5 -14.5t-15 -7.5h-1q-19 0 -21 19q-1 5 -1 9v9q0 65 37 121zM350 388q40 -32 62 -76t22 -95q0 -45 -17 -84.5t-46.5 -69t-69 -46.5t-84.5 -17q-68 0 -124 38q-7 5 -8.5 13.5t3.5 16.5 q5 7 13.5 8.5t15.5 -3.5q46 -31 100 -31q36 0 68 13.5t55.5 37.5t37.5 56t14 68q0 41 -18 76.5t-50 61.5q-48 37 -107 37h-1q-29 0 -55 11.5t-45.5 31t-30.5 45.5t-11 56t11.5 56t31 45.5t45.5 31t56 11.5t56.5 -11.5t46 -31t31 -45.5t11.5 -56q0 -9 -6.5 -15t-14.5 -6 q-9 0 -15 6t-6 15q0 21 -8 39.5t-22 32.5t-33 22t-40 8t-39.5 -8t-32.5 -22t-22 -32.5t-8 -39.5t8 -40t22 -32.5t32.5 -21.5t39.5 -8h1q73 -2 131 -46z" />
<glyph unicode="T" horiz-adv-x="671" d="M567 680q9 0 15 -6.5t6 -15.5q0 -8 -6 -14.5t-15 -6.5h-546q-8 0 -14.5 6.5t-6.5 14.5q0 9 6.5 15.5t14.5 6.5h546zM294 543q9 0 15.5 -6t6.5 -15v-501q0 -8 -6.5 -14.5t-15.5 -6.5t-15 6.5t-6 14.5v501q0 9 6 15t15 6z" />
<glyph unicode="U" horiz-adv-x="570" d="M144 43q9 0 15.5 -6.5t6.5 -15.5q0 -8 -6.5 -14.5t-15.5 -6.5q-30 0 -56 11.5t-45.5 31t-31 45.5t-11.5 56v515q0 8 6.5 14.5t14.5 6.5q9 0 15.5 -6.5t6.5 -14.5v-515q0 -21 8 -39.5t21.5 -32t32 -21.5t39.5 -8zM444 680q8 0 14.5 -6.5t6.5 -14.5v-515q0 -30 -11.5 -56 t-31 -45.5t-45.5 -31t-56 -11.5q-9 0 -15.5 6.5t-6.5 14.5q0 9 6.5 15.5t15.5 6.5q21 0 39.5 8t32 21.5t21.5 32t8 39.5v515q0 8 6.5 14.5t15.5 6.5z" />
<glyph unicode="V" horiz-adv-x="679" d="M247 183q4 -8 0.5 -16t-11.5 -12q-3 -1 -9 -1t-11.5 3t-7.5 10l-206 483q-4 8 -0.5 16.5t11.5 11.5q8 4 16.5 0.5t11.5 -11.5zM573 678q8 -3 11.5 -11.5t-0.5 -16.5l-271 -637q-7 -13 -20 -13q-4 0 -8 2q-8 3 -11.5 11.5t-0.5 16.5l272 637q3 8 11.5 11.5t16.5 -0.5z" />
<glyph unicode="W" horiz-adv-x="715" d="M21 154q-8 0 -14.5 6t-6.5 15v484q0 8 6.5 14.5t14.5 6.5q9 0 15.5 -6.5t6.5 -14.5v-484q0 -9 -6.5 -15t-15.5 -6zM592 680q9 0 15.5 -6.5t6.5 -14.5v-635q0 -9 -6.5 -15t-15.5 -6h-3q-7 0 -14 5l-268 244l-271 -247q-7 -5 -15 -5q-9 0 -16 7q-5 7 -5 15.5t7 14.5 l285 259q7 5 14 5h2q7 0 14 -5l249 -226v589q0 8 6.5 14.5t14.5 6.5z" />
<glyph unicode="X" horiz-adv-x="629" d="M521 35q5 -7 4 -16t-8 -14q-5 -4 -13 -4q-11 0 -17 8l-482 637q-5 7 -4.5 15.5t8.5 14.5q7 5 16 4t14 -9l224 -296l226 297q5 7 13.5 8t16.5 -4q7 -6 8 -14.5t-4 -15.5l-233 -306zM162 251q5 8 13.5 9t16.5 -4q7 -5 8 -13.5t-4 -16.5l-157 -217q-8 -9 -18 -9q-7 0 -12 4 q-8 5 -9 13.5t4 16.5z" />
<glyph unicode="Y" horiz-adv-x="635" d="M521 677q8 -5 10 -13.5t-3 -16.5l-249 -400q-7 -10 -18 -10h-1q-13 0 -19 11l-238 399q-5 8 -3 16.5t10 13.5t16.5 2.5t13.5 -10.5l221 -370l230 371q5 8 13.5 10t16.5 -3zM260 142q9 0 15.5 -6t6.5 -15v-100q0 -8 -6.5 -14.5t-15.5 -6.5t-15 6.5t-6 14.5v100q0 9 6 15 t15 6z" />
<glyph unicode="Z" horiz-adv-x="746" d="M167 637q-9 0 -15 6.5t-6 15.5q0 8 6 14.5t15 6.5h436q9 0 15 -6.5t6 -14.5q0 -9 -6 -15.5t-15 -6.5h-436zM623 42q9 0 15 -6t6 -15t-6 -15t-15 -6h-602q-9 0 -15 6t-6 15v1q0 11 6 16l460 499q6 7 15 7.5t15 -5.5q7 -6 7.5 -15t-5.5 -15l-431 -467h556z" />
<glyph unicode="[" horiz-adv-x="299" d="M141 -256q10 0 16.5 -6.5t6.5 -16.5q0 -9 -6.5 -15.5t-16.5 -6.5h-118q-10 0 -16.5 6.5t-6.5 15.5v936q0 10 6.5 16.5t16.5 6.5h118q10 0 16.5 -6.5t6.5 -16.5t-6.5 -16.5t-16.5 -6.5h-96v-890h96v0z" />
<glyph unicode="\" horiz-adv-x="435" d="M13 678q8 4 16 0.5t11 -11.5l264 -638q3 -8 0 -16t-11 -11q-3 -2 -8 -2q-14 0 -20 13l-263 638q-4 8 -0.5 16t11.5 11z" />
<glyph unicode="]" horiz-adv-x="299" d="M23 -256h96v890h-96q-10 0 -16.5 6.5t-6.5 16.5t6.5 16.5t16.5 6.5h118q10 0 16.5 -6.5t6.5 -16.5v-936q0 -9 -6.5 -15.5t-16.5 -6.5h-118q-10 0 -16.5 6.5t-6.5 15.5q0 10 6.5 16.5t16.5 6.5z" />
<glyph unicode="^" horiz-adv-x="411" d="M291 474q4 -5 2.5 -11.5t-7.5 -10.5q-4 -2 -8 -2q-9 0 -13 7l-118 180l-118 -180q-4 -7 -13 -7q-3 0 -9 2q-5 4 -6.5 10.5t2.5 11.5l130 199q4 5 11 7h5q8 -2 12 -7l130 -199v0z" />
<glyph unicode="_" horiz-adv-x="508" d="M366 -133q9 0 15.5 -6.5t6.5 -15.5q0 -10 -6.5 -16.5t-15.5 -6.5h-344q-9 0 -15.5 6.5t-6.5 16.5q0 9 6.5 15.5t15.5 6.5h344v0z" />
<glyph unicode="a" d="M422 443q9 0 15.5 -6.5t6.5 -15.5v-399q0 -9 -6.5 -15.5t-15.5 -6.5t-15.5 6.5t-6.5 15.5v200q0 37 -14 69.5t-38 56.5t-56.5 38t-69.5 14t-69.5 -14t-56.5 -38t-38 -56.5t-14 -69.5t14 -69.5t38 -56.5t56.5 -38t69.5 -14q48 0 92 25q8 5 16.5 3t13.5 -10t2.5 -16.5 t-10.5 -13.5q-52 -32 -114 -32q-46 0 -86.5 17.5t-70.5 47.5t-47.5 70.5t-17.5 86.5t17.5 86.5t47.5 70.5t70.5 47.5t86.5 17.5q55 0 101.5 -24.5t76.5 -65.5v67q0 9 6.5 15.5t15.5 6.5z" />
<glyph unicode="b" horiz-adv-x="530" d="M222 444q46 0 86.5 -17.5t70.5 -47.5t47.5 -70.5t17.5 -86.5t-17.5 -86.5t-47.5 -70.5t-70.5 -47.5t-86.5 -17.5q-62 0 -115 32q-8 5 -10 13.5t3 16.5t13.5 10.5t16.5 -2.5q40 -26 92 -26q37 0 69.5 14t56.5 38t38 56.5t14 69.5t-14 69.5t-38 56.5t-56.5 38t-69.5 14 t-69.5 -14t-56.5 -38t-38 -56.5t-14 -69.5v-201q0 -8 -6.5 -14.5t-16.5 -6.5q-8 0 -14.5 6.5t-6.5 14.5v656q0 8 6.5 14.5t14.5 6.5q10 0 16.5 -6.5t6.5 -14.5v-323q30 41 76 65.5t102 24.5z" />
<glyph unicode="c" horiz-adv-x="485" d="M222 0q-46 0 -86.5 17.5t-70.5 47.5t-47.5 70.5t-17.5 86.5q0 50 22 97q5 8 13.5 11.5t16.5 -0.5q8 -5 11 -13.5t-1 -16.5q-18 -36 -18 -78q0 -37 14 -69.5t38 -56.5t56.5 -38t69.5 -14q9 0 15.5 -6.5t6.5 -15.5t-6.5 -15.5t-15.5 -6.5zM370 334q-10 0 -16 8 q-26 28 -60 43t-72 15q-35 0 -69 -14q-8 -3 -15.5 -7t-15.5 -9t-16.5 -3.5t-13.5 9.5t-3.5 16.5t9.5 13.5q9 6 18 11t20 10q42 17 86 17q47 0 89.5 -19t74.5 -54q7 -7 6.5 -16t-7.5 -15q-6 -6 -15 -6z" />
<glyph unicode="d" horiz-adv-x="530" d="M421 700q9 0 15.5 -6.5t6.5 -14.5v-658q0 -8 -6.5 -14.5t-15.5 -6.5q-10 0 -16 6.5t-6 14.5v201q0 36 -14 68.5t-38 56.5t-56.5 38t-69.5 14q-36 0 -68.5 -14t-56.5 -38t-38 -56.5t-14 -68.5q0 -37 14 -69.5t38 -56.5t56.5 -38t68.5 -14q24 0 47.5 6t43.5 19q8 5 17 3 t14 -10t3 -16.5t-10 -13.5q-53 -32 -115 -32q-46 0 -86 17.5t-70 47.5t-47.5 70.5t-17.5 86.5q0 45 17.5 85.5t47.5 70.5t70 47.5t86 17.5q55 0 101 -24.5t77 -65.5v326q0 8 6 14.5t16 6.5z" />
<glyph unicode="e" horiz-adv-x="532" d="M110 254q0 9 6.5 15.5t15.5 6.5h260q-18 55 -64 89.5t-106 34.5q-46 0 -85.5 -22t-64.5 -60q-20 -33 -26 -67q-1 -8 -1.5 -14.5t-0.5 -14.5q0 -37 14 -69.5t38 -56.5t56.5 -38t69.5 -14q42 0 79 18t63 52q6 8 11 16.5t9 17.5q4 8 12.5 11.5t16.5 -0.5t11.5 -12.5 t-0.5 -16.5q-11 -24 -25 -42q-32 -42 -78 -65t-99 -23q-46 0 -86.5 17.5t-70.5 47.5t-47.5 70.5t-17.5 86.5q0 18 3 36q4 23 11.5 43.5t20.5 39.5q31 49 80.5 76t106.5 27q41 0 78 -14t66 -38.5t49 -59t26 -74.5q2 -9 -3.5 -16t-14.5 -9q-2 -1 -4.5 -1h-3.5h-283 q-9 0 -15.5 6.5t-6.5 15.5z" />
<glyph unicode="f" horiz-adv-x="321" d="M197 371q10 0 16 -6.5t6 -15.5t-6 -15.5t-16 -6.5h-175q-9 0 -15.5 6.5t-6.5 15.5t6.5 15.5t15.5 6.5h13v202v1q1 25 11 47.5t27 39.5t39.5 27t48.5 10h1h23q9 0 15.5 -6.5t6.5 -15.5t-6.5 -15.5t-15.5 -6.5h-22q-35 0 -59.5 -24.5t-24.5 -59.5v-199h118zM57 266 q9 0 15.5 -6.5t6.5 -15.5v-222q0 -9 -6.5 -15.5t-15.5 -6.5t-15.5 6.5t-6.5 15.5v222q0 9 6.5 15.5t15.5 6.5z" />
<glyph unicode="g" d="M423 443q9 0 15 -6t6 -15v-501q0 -46 -17.5 -86.5t-47.5 -70.5t-70 -47.5t-86 -17.5t-86.5 17.5t-71 47.5t-48 70.5t-17.5 86.5q0 14 1.5 27.5t5.5 27.5q2 8 9.5 13t17.5 3q8 -3 12.5 -10.5t2.5 -16.5q-5 -23 -5 -44q0 -37 14 -69.5t38.5 -57t57 -38.5t69.5 -14 q36 0 68.5 14t56.5 38.5t38 57t14 69.5v300q0 37 -14 69.5t-38 57t-56.5 38.5t-68.5 14q-37 0 -69.5 -14t-57 -38.5t-38.5 -57t-14 -69.5q0 -36 14 -68.5t38.5 -57t57 -38.5t69.5 -14q23 0 47 6.5t44 19.5q8 5 16.5 2.5t13.5 -10.5t3 -16t-10 -13q-26 -17 -55.5 -24.5 t-58.5 -7.5q-46 0 -86.5 17.5t-71 47.5t-48 70t-17.5 86t17.5 86.5t48 71t71 48t86.5 17.5q54 0 100.5 -24.5t76.5 -65.5v68q0 9 6.5 15t16.5 6z" />
<glyph unicode="h" horiz-adv-x="462" d="M21 169q9 0 15.5 -6t6.5 -15v-127q0 -8 -6.5 -14.5t-15.5 -6.5q-8 0 -14.5 6.5t-6.5 14.5v127q0 9 6.5 15t14.5 6zM182 444q37 0 70.5 -14.5t58 -39t39 -58t14.5 -70.5v-241q0 -8 -6.5 -14.5t-15.5 -6.5t-15 6.5t-6 14.5v241q0 28 -11 53.5t-30 44.5t-44.5 30t-53.5 11 q-29 0 -54.5 -11t-44 -30t-29.5 -44.5t-11 -53.5q0 -9 -6.5 -15.5t-15.5 -6.5q-8 0 -14.5 6.5t-6.5 15.5v415q0 8 6.5 14.5t14.5 6.5q9 0 15.5 -6.5t6.5 -14.5v-298q25 29 61 47t78 18z" />
<glyph unicode="i" horiz-adv-x="175" d="M35 441q9 0 15.5 -6.5t6.5 -15.5v-235q0 -9 -6.5 -15.5t-15.5 -6.5t-15.5 6.5t-6.5 15.5v235q0 9 6.5 15.5t15.5 6.5zM35 88q9 0 15.5 -6.5t6.5 -15.5v-44q0 -9 -6.5 -15.5t-15.5 -6.5t-15.5 6.5t-6.5 15.5v44q0 9 6.5 15.5t15.5 6.5zM35 563q15 0 25.5 -10.5t10.5 -25.5 q0 -14 -10.5 -24.5t-25.5 -10.5q-14 0 -24.5 10.5t-10.5 24.5q0 15 10.5 25.5t24.5 10.5z" />
<glyph unicode="j" horiz-adv-x="231" d="M92 -70q-9 0 -15.5 6.5t-6.5 15.5v469q0 9 6.5 15t15.5 6t15.5 -6t6.5 -15v-469q0 -9 -6.5 -15.5t-15.5 -6.5zM127 528q0 -15 -10.5 -25t-24.5 -10t-24.5 10t-10.5 25q0 14 10.5 24.5t24.5 10.5t24.5 -10.5t10.5 -24.5zM22 -244q-9 0 -15.5 6.5t-6.5 14.5q0 9 6.5 15.5 t15.5 6.5q20 0 34 14.5t14 34.5q0 9 6.5 15.5t15.5 6.5t15.5 -6.5t6.5 -15.5q0 -19 -7.5 -36t-20 -29.5t-29 -19.5t-35.5 -7z" />
<glyph unicode="k" horiz-adv-x="385" d="M43 220v-199q0 -8 -6.5 -14.5t-15.5 -6.5q-8 0 -14.5 6.5t-6.5 14.5v656q0 8 6.5 14.5t14.5 6.5q9 0 15.5 -6.5t6.5 -14.5v-399l166 150q7 6 15.5 5.5t14.5 -7.5t6 -15.5t-7 -14.5zM277 38q7 -6 7.5 -15t-4.5 -16q-7 -7 -17 -7q-7 0 -14 5l-153 132q-7 6 -7.5 14.5 t5.5 15.5t14.5 7.5t15.5 -5.5z" />
<glyph unicode="l" horiz-adv-x="220" d="M22 177q-9 0 -15.5 6.5t-6.5 15.5v477q0 9 6.5 15.5t15.5 6.5t15.5 -6.5t6.5 -15.5v-477q0 -9 -6.5 -15.5t-15.5 -6.5zM94 44q9 0 15 -6.5t6 -15.5t-6 -15.5t-15 -6.5q-39 0 -66.5 27.5t-27.5 66.5q0 9 6.5 15t15.5 6t15.5 -6t6.5 -15q0 -21 14.5 -35.5t35.5 -14.5z" />
<glyph unicode="m" horiz-adv-x="677" d="M211 435q8 -3 12 -11t1 -17q-3 -8 -11 -12t-16 -1q-20 6 -38 6q-24 0 -45 -9t-36.5 -24.5t-24.5 -36.5t-9 -45v-263q0 -9 -6.5 -15.5t-15.5 -6.5t-15.5 6.5t-6.5 15.5v399q0 9 6.5 15.5t15.5 6.5t15.5 -6.5t6.5 -15.5v-27q22 23 51 36.5t64 13.5q26 0 52 -9zM433 444 q33 0 61.5 -12.5t50 -34t34 -50.5t12.5 -62v-263q0 -9 -6 -15.5t-15 -6.5q-10 0 -16 6.5t-6 15.5v263q0 24 -9 45t-25 36.5t-36.5 24.5t-44.5 9q-17 0 -30 -4q-38 -10 -61.5 -41t-23.5 -70v-263q0 -9 -6.5 -15.5t-15.5 -6.5t-15.5 6.5t-6.5 15.5v263q0 54 32.5 97t85.5 57 q22 5 41 5z" />
<glyph unicode="n" horiz-adv-x="453" d="M179 444q37 0 69.5 -14t57 -38.5t38.5 -57t14 -69.5v-242q0 -9 -6.5 -15.5t-15.5 -6.5t-15.5 6.5t-6.5 15.5v242q0 28 -10.5 52.5t-29 43t-43 29t-52.5 10.5q-21 0 -40 -6q-8 -2 -16 2t-11 13q-2 8 2 16.5t13 10.5q27 8 52 8zM22 443q9 0 15.5 -6.5t6.5 -15.5v-399 q0 -9 -6.5 -15.5t-15.5 -6.5t-15.5 6.5t-6.5 15.5v399q0 9 6.5 15.5t15.5 6.5z" />
<glyph unicode="o" d="M222 444q46 0 86.5 -17.5t70.5 -47.5t47.5 -70.5t17.5 -86.5t-17.5 -86.5t-47.5 -70.5t-70.5 -47.5t-86.5 -17.5t-86.5 17.5t-70.5 47.5t-47.5 70.5t-17.5 86.5q0 57 28 107q5 8 13.5 11t16.5 -2t10.5 -13.5t-2.5 -16.5q-22 -41 -22 -86q0 -37 14 -69.5t38 -56.5 t56.5 -38t69.5 -14t69.5 14t56.5 38t38 56.5t14 69.5t-14 69.5t-38 56.5t-56.5 38t-69.5 14q-45 0 -86 -22q-8 -5 -16.5 -2.5t-13.5 10.5t-2.5 16.5t10.5 13.5q51 28 108 28z" />
<glyph unicode="p" d="M221 444q46 0 87 -17.5t71 -47.5t47.5 -71t17.5 -87t-17.5 -86t-47.5 -70t-71 -47.5t-87 -17.5q-61 0 -114 32q-8 5 -10 13.5t3 16.5t13 10.5t16 -2.5q22 -13 45 -20t47 -7q37 0 70 14t57.5 38t38.5 56.5t14 69.5t-14 70t-38.5 57.5t-57.5 38.5t-70 14t-69.5 -14 t-56.5 -38.5t-38 -57.5t-14 -70v-460q0 -9 -6 -15.5t-15 -6.5t-15.5 6.5t-6.5 15.5v661q0 9 6.5 15.5t15.5 6.5t15 -6.5t6 -15.5v-68q31 42 77.5 66t100.5 24z" />
<glyph unicode="q" d="M421 443q9 0 15.5 -6.5t6.5 -15.5l-5 -666q0 -9 -6.5 -15.5t-15.5 -6.5t-15 6.5t-6 15.5l5 466q0 37 -14 69.5t-38.5 57t-57 38.5t-69.5 14t-69.5 -14t-56.5 -38.5t-38 -57t-14 -69.5t14 -69.5t38 -56.5t56.5 -38t69.5 -14q48 0 92 27q8 5 16.5 2.5t13.5 -10.5t3 -16.5 t-10 -13.5q-53 -32 -115 -32q-46 0 -86 17.5t-70 47.5t-47.5 70t-17.5 86t17.5 86.5t47.5 70.5t70 47.5t86 17.5q55 0 101.5 -24t77.5 -66v68q0 9 6 15.5t15 6.5z" />
<glyph unicode="r" horiz-adv-x="294" d="M222 444q9 0 15.5 -6.5t6.5 -15.5t-6.5 -15.5t-15.5 -6.5q-52 0 -95 -27q-5 -3 -11 -3q-13 0 -19 10q-5 8 -3 16.5t10 13.5q54 34 118 34zM22 443q9 0 15.5 -6.5t6.5 -15.5v-399q0 -9 -6.5 -15.5t-15.5 -6.5t-15.5 6.5t-6.5 15.5v399q0 9 6.5 15.5t15.5 6.5z" />
<glyph unicode="s" horiz-adv-x="385" d="M234 259q26 -21 40.5 -50.5t14.5 -63.5q0 -30 -11.5 -56.5t-31 -46t-45.5 -31t-56 -11.5q-45 0 -83 26q-8 5 -9 13.5t4 16.5t13.5 9.5t16.5 -3.5q25 -18 58 -18q21 0 39 8t32 21.5t22 32t8 39.5q0 49 -39 79q-28 22 -62 22q-20 0 -38 8t-31.5 21.5t-21 31.5t-7.5 38 t7.5 38t21 31.5t31.5 21.5t39 8q20 0 38 -8t31.5 -21.5t21.5 -31.5t8 -38q0 -9 -6.5 -15.5t-15.5 -6.5t-15.5 6.5t-6.5 15.5q0 23 -16 39t-39 16t-39.5 -16t-16.5 -39t16.5 -39.5t39.5 -16.5h1q48 0 87 -30zM44 145q0 -15 3 -28q3 -8 -1.5 -16t-13.5 -11q-2 0 -3 -0.5 t-3 -0.5q-16 0 -21 16q-2 7 -3 13t-1 13q0 1 -0.5 1t-0.5 1v12q0 44 24 80q5 8 14 9.5t17 -3.5t9.5 -13.5t-3.5 -16.5q-17 -26 -17 -56z" />
<glyph unicode="t" horiz-adv-x="301" d="M178 376q9 0 15.5 -6.5t6.5 -15.5t-6.5 -15t-15.5 -6h-156q-9 0 -15.5 6t-6.5 15t6.5 15.5t15.5 6.5h30v189q0 9 6.5 15.5t15.5 6.5t15.5 -6.5t6.5 -15.5v-189h82zM145 43q9 0 15.5 -6t6.5 -15t-6.5 -15.5t-15.5 -6.5q-19 0 -36 7t-29.5 19.5t-20 29t-7.5 35.5v1v158 q0 9 6.5 15.5t15.5 6.5t15.5 -6.5t6.5 -15.5v-157q0 -20 14.5 -35t34.5 -15z" />
<glyph unicode="u" horiz-adv-x="461" d="M235 56q8 4 16.5 0.5t12.5 -11.5t0.5 -16.5t-11.5 -12.5q-35 -16 -74 -16q-37 0 -69.5 14t-57 38.5t-38.5 57t-14 69.5v242q0 9 6.5 15.5t15.5 6.5t15.5 -6.5t6.5 -15.5v-242q0 -28 10.5 -52.5t29 -43t43 -29t52.5 -10.5q29 0 56 12zM336 444q9 0 15.5 -6.5t6.5 -15.5 v-399q0 -9 -6.5 -15.5t-15.5 -6.5t-15.5 6.5t-6.5 15.5v399q0 9 6.5 15.5t15.5 6.5z" />
<glyph unicode="v" horiz-adv-x="479" d="M144 114q-15 0 -20 13l-122 287q-4 8 -0.5 16t11.5 12t16.5 0.5t12.5 -11.5l122 -287q4 -8 0.5 -16.5t-12.5 -11.5q-2 -2 -8 -2zM192 0q-2 0 -8 2q-8 3 -11.5 11.5t-0.5 16.5l171 401q4 8 12 11.5t17 -0.5q8 -4 11.5 -12t-0.5 -16l-170 -401q-7 -13 -21 -13z" />
<glyph unicode="w" horiz-adv-x="553" d="M22 107q-9 0 -15.5 6t-6.5 15v294q0 9 6.5 15.5t15.5 6.5t15 -6.5t6 -15.5v-294q0 -9 -6 -15t-15 -6zM442 444q9 0 15.5 -6.5t6.5 -15.5v-400q0 -11 -8 -17q-1 0 -2 -1q-4 -2 -5 -2q-4 -2 -6 -2h-1q-6 0 -13 5l-197 152l-197 -152q-5 -5 -13 -5q-11 0 -17 8t-5 16.5 t8 14.5l210 162q4 4 11 4q3 3 6 0q7 0 11 -4l175 -135v356q0 9 6 15.5t15 6.5z" />
<glyph unicode="x" horiz-adv-x="442" d="M342 36q5 -7 4 -16t-8 -14q-5 -4 -14 -4t-17 8l-303 399q-5 8 -4 16.5t8 14.5q8 5 17 4t14 -9l135 -177l133 175q5 8 14 8.5t17 -4.5q7 -5 8 -14t-4 -16l-141 -185zM108 171q5 8 14 9t16 -5q8 -5 9 -14t-4 -16l-104 -137q-6 -8 -17 -8q-9 0 -14 4q-7 6 -8 14.5t4 16.5z " />
<glyph unicode="y" horiz-adv-x="486" d="M386 438q8 -4 11 -12.5t-1 -16.5l-315 -646q-6 -12 -19 -12q-4 0 -10 2q-8 4 -11 12.5t1 16.5l315 646q4 8 12.5 11.5t16.5 -1.5zM126 131q-6 0 -12 4t-8 10l-105 269q-3 9 1 17t12 11q8 4 16 0t12 -12l105 -269q3 -8 -1 -16.5t-12 -11.5q-4 -2 -8 -2z" />
<glyph unicode="z" horiz-adv-x="503" d="M113 400q-9 0 -15 6.5t-6 15.5t6 15.5t15 6.5h274q9 0 15.5 -6.5t6.5 -15.5t-6.5 -15.5t-15.5 -6.5h-274zM400 44q9 0 15.5 -6.5t6.5 -15.5t-6.5 -15.5t-15.5 -6.5h-378q-9 0 -15.5 6.5t-6.5 15.5v1q0 8 6 16l288 314q7 7 15.5 7.5t15.5 -5.5t7.5 -15t-5.5 -16l-257 -280 h330z" />
<glyph unicode="{" horiz-adv-x="338" d="M182 -256q9 0 15.5 -6.5t6.5 -16.5q0 -9 -6.5 -15.5t-15.5 -6.5q-23 0 -43 8.5t-35 23.5t-24 35t-9 43v300l-65 65q-6 6 -6 15q0 10 6 16l65 65v300q0 22 9 42t24 35t35 24t43 9q9 0 15.5 -6.5t6.5 -15.5q0 -10 -6.5 -16.5t-15.5 -6.5q-27 0 -46.5 -19t-19.5 -46v-761 q0 -27 19.5 -46t46.5 -19z" />
<glyph unicode="|" horiz-adv-x="182" d="M23 680q9 0 15.5 -6.5t6.5 -16.5v-935q0 -10 -6.5 -16.5t-15.5 -6.5q-10 0 -16.5 6.5t-6.5 16.5v935q0 10 6.5 16.5t16.5 6.5z" />
<glyph unicode="}" horiz-adv-x="338" d="M0 -279q0 10 6.5 16.5t15.5 6.5q27 0 46.5 19t19.5 46v761q0 27 -19.5 46t-46.5 19q-9 0 -15.5 6.5t-6.5 16.5q0 9 6.5 15.5t15.5 6.5q23 0 43 -9t35 -24t23.5 -35t8.5 -42v-300l65 -65q7 -6 7 -16q0 -9 -7 -15l-65 -65v-300q0 -23 -8.5 -43t-23.5 -35t-35 -23.5 t-43 -8.5q-9 0 -15.5 6.5t-6.5 15.5z" />
<glyph unicode="~" horiz-adv-x="305" d="M175 235q8 -5 9.5 -13t-3.5 -15q-12 -19 -35 -24q-3 -1 -11 -1q-17 0 -30 9l-48 32q-4 3 -11 1q-5 0 -8 -5q-7 -10 -17 -10q-7 0 -12 4q-7 5 -9 13t3 15q13 19 35 24t41 -8l49 -32q3 -2 10 -2q6 1 9 6q5 8 13 9.5t15 -3.5z" />
<glyph unicode="&#x2dc;" horiz-adv-x="305" d="M177 234q13 -8 5 -22q-8 -11 -19.5 -17t-24.5 -6q-17 0 -28 8l-52 34q-8 5 -16 3q-8 -1 -13 -9q-4 -7 -13 -7q-3 0 -9 2q-5 4 -6.5 10.5t2.5 11.5q11 18 32 23t40 -8l52 -34q6 -5 15 -3q7 2 14 9q3 6 9.5 7.5t11.5 -2.5z" />
<glyph unicode="&#x2013;" horiz-adv-x="321" d="M178 253q10 0 16.5 -7t6.5 -17q0 -9 -6.5 -16t-16.5 -7h-155q-10 0 -16.5 7t-6.5 16q0 10 6.5 17t16.5 7h155v0z" />
<glyph unicode="&#x2014;" horiz-adv-x="411" d="M268 253q10 0 16.5 -7t6.5 -17q0 -9 -6.5 -16t-16.5 -7h-245q-10 0 -16.5 7t-6.5 16q0 10 6.5 17t16.5 7h245v0z" />
<glyph unicode="&#x2018;" horiz-adv-x="279" d="M6 555l54 116q4 9 15 9q5 0 7 -1q7 -3 9 -9.5t0 -13.5l-27 -56q3 0 5.5 0.5t5.5 0.5q32 0 54 -22t22 -53q0 -32 -22 -54t-54 -22q-31 0 -53 22t-22 54q0 14 6 28v1z" />
<glyph unicode="&#x2019;" horiz-adv-x="279" d="M145 576l-1 -1l-53 -115q-5 -10 -16 -10q-3 0 -7 2q-6 3 -8.5 9.5t0.5 12.5l26 57q-3 -1 -11 -1q-31 0 -53 21.5t-22 53.5q0 31 22 53t53 22q32 0 54 -22t22 -53q0 -16 -6 -28v-1v0z" />
<glyph unicode="&#x201c;" horiz-adv-x="464" d="M269 601q32 0 53.5 -22t21.5 -53q0 -32 -21.5 -54t-53.5 -22q-31 0 -53 22t-22 54q0 13 5 28h1v1l54 116q3 6 9.5 8.5t12.5 -0.5q15 -7 8 -23l-26 -56q3 0 5.5 0.5t5.5 0.5zM75 601q32 0 54 -22t22 -53q0 -32 -22 -54t-54 -22q-31 0 -53 22t-22 54q0 14 6 28v1l54 116 q3 6 9.5 8.5t12.5 -0.5q7 -3 9 -9.5t0 -13.5l-27 -56q3 0 5.5 0.5t5.5 0.5z" />
<glyph unicode="&#x201d;" horiz-adv-x="464" d="M75 530q-31 0 -53 21.5t-22 53.5q0 31 22 53t53 22q32 0 54 -22t22 -53q0 -16 -6 -28v-1l-1 -1l-53 -115q-3 -6 -9.5 -8.5t-13.5 0.5q-6 3 -8.5 9.5t0.5 12.5l26 57q-3 -1 -11 -1zM269 530q-31 0 -53 21.5t-22 53.5q0 31 22 53t53 22q32 0 53.5 -22t21.5 -53 q0 -15 -5 -28v-1q-1 0 -1 -1l-54 -115q-3 -6 -9.5 -8.5t-12.5 0.5t-8.5 9.5t0.5 12.5l26 57q-3 -1 -11 -1z" />
<glyph unicode="&#x2044;" horiz-adv-x="280" />
<glyph unicode="&#x25fc;" horiz-adv-x="445" d="M0 445h445v-445h-445v445z" />
</font>
</defs>
</svg>
